osu file format v14

[General]
AudioFilename: tsubasa.mp3
AudioLeadIn: 1500
PreviewTime: 10686
Countdown: 0
SampleSet: Normal
StackLeniency: 0.7
Mode: 0
LetterboxInBreaks: 0
WidescreenStoryboard: 0

[Editor]
DistanceSpacing: 1
BeatDivisor: 4
GridSize: 4
TimelineZoom: 1.6

[Metadata]
Title:TSUBASA -Game size-
TitleUnicode:TSUBASA -Game size-
Artist:Katakiri Rekka
ArtistUnicode:片霧烈火
Creator:EvilElvis
Version:Aka's Normal
Source:うみねこのなく頃に散
Tags:higurashi 10th anniversary Umineko no Naku Koro ni Chiru dai hope When They Cry 07th expansion visual novel damnae ryuu aka
BeatmapID:462699
BeatmapSetID:193832

[Difficulty]
HPDrainRate:4
CircleSize:4
OverallDifficulty:4
ApproachRate:5
SliderMultiplier:1
SliderTickRate:1

[Events]
//Background and Video events
0,0,"bg.jpg",0,0
//Break Periods
//Storyboard Layer 0 (Background)
//Storyboard Layer 1 (Fail)
//Storyboard Layer 2 (Pass)
//Storyboard Layer 3 (Foreground)
//Storyboard Sound Samples
//Background Colour Transformations
3,100,163,162,255

[TimingPoints]
880,332.409972299169,4,2,1,60,1,0
10686,-100,4,1,1,60,0,0
43428,-100,4,1,1,60,0,1
48747,-100,4,1,1,60,0,0
84647,-100,4,1,1,50,0,0
84730,-100,4,1,1,40,0,0
84813,-100,4,1,1,30,0,0
84896,-100,4,1,1,20,0,0
84979,-100,4,1,1,10,0,0
85062,-100,4,1,1,5,0,0

[Colours]
Combo1 : 17,254,176
Combo2 : 173,255,95
Combo3 : 255,88,100
Combo4 : 255,94,55

[HitObjects]
448,45,880,6,0,B|405:39|363:51|331:73,1,100,4|0,1:0|0:0,0:0:0:0:
269,120,1544,1,0,1:2:0:0:
298,216,1877,1,2,0:0:0:0:
201,241,2209,2,0,B|162:244|130:268|114:301,1,100,0|0,0:0|1:0,0:0:0:0:
206,341,2874,2,0,B|245:325|286:325|323:337,1,100,4|4,0:0|0:0,0:0:0:0:
378,264,3539,6,0,L|367:152,1,100,4|0,1:0|1:0,0:0:0:0:
305,88,4204,1,0,1:0:0:0:
216,133,4536,2,0,B|195:137|174:132|157:122,1,50,0|0,1:0|0:0,0:0:0:0:
128,107,4868,2,0,B|97:88|62:84|30:92,2,100,0|4|0,1:0|0:0|1:0,0:0:0:0:
140,208,5866,1,4,0:0:0:0:
140,208,6198,6,0,L|150:329,1,100,12|8,1:0|1:0,0:0:0:0:
243,277,6863,2,0,L|233:156,1,100,8|8,1:0|1:0,0:0:0:0:
334,193,7528,1,8,1:0:0:0:
422,146,7860,1,8,1:0:0:0:
507,199,8193,2,0,B|488:232|453:249|418:246,1,100,8|8,1:0|1:0,0:0:0:0:
334,193,8857,5,4,0:0:0:0:
299,98,9190,2,0,L|305:31,2,50,8|4|8,3:0|0:0|3:0,0:0:0:0:
219,159,9855,2,0,L|226:210,1,50,4|4,0:0|3:0,0:0:0:0:
232,253,10187,2,0,B|213:285|179:302|145:302,1,100,4|8,1:0|1:0,0:0:0:0:
105,295,10686,2,0,B|58:286|25:246|22:199|40:162,1,150,2|0,1:0|0:0,0:0:0:0:
76,91,11517,6,0,B|123:101|162:101|169:59|221:41|279:70,1,200,6|6,1:0|1:2,0:0:0:0:
349,121,12514,1,10,0:0:0:0:
362,219,12846,2,0,B|355:262|321:292|281:298,1,100,6|8,0:0|0:0,0:0:0:0:
203,272,13511,6,0,L|210:158,1,100,2|10,0:0|0:0,0:0:0:0:
113,200,14176,2,0,L|120:100,1,100,6|8,0:0|0:0,0:0:0:0:
146,63,14675,2,0,B|202:78|257:54|286:10,1,150,2|10,0:0|0:0,0:0:0:0:
363,77,15506,2,0,L|357:183,1,100,6|8,0:0|0:0,0:0:0:0:
310,265,16170,1,6,0:0:0:0:
216,231,16503,5,10,0:0:0:0:
156,311,16835,2,0,B|122:321|87:311|63:288,1,100,4|8,1:2|0:0,0:0:0:0:
42,249,17334,2,0,L|56:134,1,100,2|0,0:0|0:0,0:0:0:0:
82,114,17832,1,10,0:0:0:0:
172,71,18165,2,0,B|209:52|251:53|285:70,1,100,6|8,0:0|0:0,0:0:0:0:
308,87,18663,1,2,0:0:0:0:
388,213,19162,5,8,0:0:0:0:
388,213,19494,2,0,L|381:329,1,100,6|8,0:0|0:0,0:0:0:0:
348,342,19993,2,0,B|304:303|244:296|195:318,1,150,2|10,0:0|0:0,0:0:0:0:
116,272,20824,2,0,B|85:219|91:156|125:112,2,150,4|0|12,1:2|0:0|1:2,0:0:0:0:
208,235,22154,6,0,L|323:227,1,100,6|8,0:0|0:0,0:0:0:0:
380,159,22819,1,0,0:0:0:0:
463,215,23151,1,10,0:0:0:0:
503,123,23483,2,0,B|507:85|493:50|468:25,1,100,6|10,0:0|0:0,0:0:0:0:
377,60,24148,6,0,B|341:80|300:79|266:63,1,100,2|12,0:0|1:2,0:0:0:0:
190,112,24813,2,0,B|154:157|145:214|160:265,2,150,6|6|14,0:0|0:0|0:0,0:0:0:0:
275,165,26143,2,0,B|305:211|361:229|410:213,1,150,6|2,0:0|0:0,0:0:0:0:
342,79,27140,5,12,0:2:0:0:
250,38,27472,2,0,L|144:46,1,100,4|8,0:0|0:0,0:0:0:0:
79,115,28137,1,0,0:0:0:0:
132,199,28470,1,8,0:0:0:0:
224,161,28802,2,0,B|277:147|330:164|364:201,1,150,2|2,0:0|0:0,0:0:0:0:
396,230,29467,6,0,L|404:117,1,100,2|10,0:0|0:0,0:0:0:0:
489,181,30132,2,0,L|481:340,2,150,4|4|4,1:2|1:2|1:2,0:0:0:0:
400,135,31461,2,0,B|352:194|240:155|256:28|349:7|395:51,1,300,4|8,0:2|0:0,0:0:0:0:
477,109,32791,6,0,B|487:150|469:189|437:211,1,100,6|8,0:0|0:0,0:0:0:0:
356,237,33456,1,0,0:0:0:0:
261,208,33788,1,10,0:0:0:0:
182,270,34120,2,0,L|187:371,1,100,6|12,0:0|0:2,0:0:0:0:
87,359,34785,5,4,0:2:0:0:
83,258,35118,1,4,0:2:0:0:
83,159,35450,2,0,L|78:10,2,150,6|2|10,0:0|0:0|0:0,0:0:0:0:
164,217,36780,2,0,B|210:244|266:238|304:207,1,150,6|2,0:0|0:0,0:0:0:0:
401,91,37777,5,10,0:0:0:0:
461,171,38109,2,0,B|487:198|496:235|488:269,1,100,4|10,0:2|0:0,0:0:0:0:
465,302,38608,2,0,B|425:289|384:302|357:331,1,100,2|0,0:0|0:0,0:0:0:0:
339,352,39107,1,10,0:0:0:0:
244,318,39439,2,0,B|230:167,2,150,4|0|10,0:2|0:0|0:0,0:0:0:0:
153,360,40769,6,0,B|114:359|80:340|59:311,1,100,4|10,0:0|0:0,0:0:0:0:
48,220,41434,2,0,L|52:100,1,100,2|10,0:0|0:0,0:0:0:0:
122,50,42098,2,0,B|152:30|187:26|218:33,2,100,4|12|4,0:2|0:2|0:2,0:0:0:0:
67,134,43096,5,10,0:0:0:0:
145,196,43428,2,0,L|261:205,1,100,6|10,0:0|0:0,0:0:0:0:
345,213,44093,1,0,0:0:0:0:
295,300,44425,1,10,0:0:0:0:
381,353,44758,2,0,B|422:363|462:344|483:311,1,100,4|10,0:0|0:0,0:0:0:0:
446,229,45422,5,2,0:0:0:0:
489,138,45755,1,12,0:2:0:0:
414,71,46087,2,0,B|364:37|303:34|254:58,2,150,6|6|14,0:0|0:0|0:0,0:0:0:0:
354,151,47417,2,0,B|297:146|248:188|243:243,1,150,4|2,0:0|0:0,0:0:0:0:
223,273,48082,6,0,B|201:225|124:225|99:297|136:342|178:342,1,200,2|4,0:0|1:0,0:0:0:0:
367,309,49411,1,4,0:2:0:0:
234,159,50076,1,4,0:0:0:0:
109,315,50741,6,0,B|114:253|101:194,1,100,4|8,0:2|0:0,0:0:0:0:
166,137,51406,2,0,B|175:196|234:234|291:218,2,150,6|6|6,0:0|0:0|0:0,0:0:0:0:
265,121,52735,2,0,B|338:144|413:46|320:-54|228:-9|222:57,1,300,4|4,0:2|0:2,0:0:0:0:
185,144,54065,6,0,B|192:206|197:267,1,100,6|8,0:0|0:0,0:0:0:0:
210,343,54730,1,2,0:0:0:0:
300,300,55062,1,8,0:0:0:0:
382,357,55395,2,0,B|423:361|460:340|481:308,1,100,2|8,0:0|0:0,0:0:0:0:
491,280,55893,2,0,B|452:238|449:178|475:133,1,150,2|8,0:0|0:0,0:0:0:0:
395,74,56724,6,0,B|345:88|294:86,1,100,4|8,0:2|0:0,0:0:0:0:
198,61,57389,1,0,0:0:0:0:
166,156,57722,1,12,0:2:0:0:
219,240,58054,2,0,L|272:237,1,50,6|2,0:0|0:0,0:0:0:0:
232,330,58553,2,0,L|75:342,1,150,2|2,0:0|0:2,0:0:0:0:
23,262,59384,5,6,0:0:0:0:
71,174,59716,1,8,0:0:0:0:
47,77,60048,1,0,0:0:0:0:
136,32,60381,1,8,0:0:0:0:
230,65,60713,2,0,B|284:85|340:74|383:43,2,150,6|12|8,0:0|0:2|0:0,0:0:0:0:
151,126,62043,6,0,B|130:159|128:198|140:232,1,100,4|8,0:0|0:0,0:0:0:0:
212,288,62708,1,4,0:2:0:0:
306,255,63040,1,8,0:2:0:0:
400,288,63373,2,0,L|392:189,2,100,4|4|4,0:2|0:2|0:2,0:0:0:0:
497,266,64370,1,2,0:0:0:0:
459,358,64702,6,0,B|414:394|349:386|310:340|308:289,1,200,6|0,0:0|0:0,0:0:0:0:
318,194,65699,1,14,0:2:0:0:
308,94,66032,2,0,B|321:42|259:-7|194:36|196:95|230:121,1,200,6|4,0:0|0:2,0:0:0:0:
286,191,67029,1,10,0:0:0:0:
384,206,67361,6,0,B|422:206|455:223|478:249,1,100,4|10,0:2|0:0,0:0:0:0:
409,321,68026,2,0,B|371:316|336:327|309:348,1,100,4|10,0:2|0:0,0:0:0:0:
217,371,68691,2,0,B|161:369|117:326|110:273,2,150,6|6|8,0:0|0:0|0:0,0:0:0:0:
303,321,70021,6,0,B|300:241|320:165,1,150,4|0,0:0|0:0,0:0:0:0:
179,113,71018,1,0,0:0:0:0:
179,113,71350,2,0,B|200:186|189:261,2,150,4|0|10,0:0|0:0|0:0,0:0:0:0:
130,26,72680,6,0,B|186:36|241:26,1,100,6|8,0:0|0:0,0:0:0:0:
288,101,73345,2,0,B|340:94|390:103,1,100,0|8,0:0|0:0,0:0:0:0:
473,50,74010,1,4,0:2:0:0:
404,238,74675,1,4,0:2:0:0:
308,209,75007,1,4,0:2:0:0:
219,254,75339,6,0,B|181:274|137:264|111:235,1,100,6|12,0:0|0:0,0:0:0:0:
118,147,76004,2,0,B|120:115|109:86,1,50,14|14,0:0|0:0,0:0:0:0:
20,137,76503,2,0,B|7:194|21:251,1,100,2|10,0:0|0:0,0:0:0:0:
86,311,77168,1,6,0:0:0:0:
118,342,77334,2,0,B|157:333|195:336|229:348,1,100,12|6,0:0|0:0,0:0:0:0:
296,284,77999,6,0,L|292:173,1,100,4|10,0:2|0:0,0:0:0:0:
382,141,78663,2,0,L|379:205,1,50,14|14,0:0|0:0,0:0:0:0:
473,153,79162,2,0,L|469:42,2,100,4|8|8,0:2|0:0|0:0,0:0:0:0:
455,195,79993,2,0,L|450:309,1,100,10|4,0:0|0:2,0:0:0:0:
352,313,80658,6,0,B|328:279|289:262|250:265,1,100,6|8,0:0|0:0,0:0:0:0:
175,303,81323,2,0,B|153:306|132:303|113:295,1,50,14|14,0:0|0:0,0:0:0:0:
147,201,81821,2,0,B|166:170|171:136|165:104,1,100,2|8,0:0|0:0,0:0:0:0:
217,20,82486,1,14,0:0:0:0:
249,52,82652,2,0,L|366:48,1,100,14|6,0:0|0:0,0:0:0:0:
433,102,83317,6,0,B|458:134|464:175|453:211,1,100,2|10,0:0|0:0,0:0:0:0:
412,285,83982,2,0,B|397:302|377:311|357:314,1,50,14|14,0:0|0:0,0:0:0:0:
284,255,84481,2,0,B|327:229|319:156|249:139|210:178|213:217,1,200,4|0,0:2|2:0,0:0:0:0:
